  0
SECTION
  2
HEADER
  9
$ACADVER
  1
AC1004
  9
$INSBASE
 10
0.0
 20
0.0
  9
$EXTMIN
 10
76.584059
 20
56.821557
  9
$EXTMAX
 10
422.296456
 20
323.962955
  9
$LIMMIN
 10
76.584059
 20
56.821557
  9
$LIMMAX
 10
422.296456
 20
323.962955
  9
$VIEWCTR
 10
6.0
 20
4.5
  9
$VIEWSIZE
 40
9.0
  9
$SNAPMODE
 70
     0
  9
$SNAPUNIT
 10
10.0
 20
10.0
  9
$SNAPBASE
 10
0.0
 20
0.0
  9
$SNAPANG
 50
0.0
  9
$SNAPSTYLE
 70
     0
  9
$SNAPISOPAIR
 70
     0
  9
$GRIDMODE
 70
     0
  9
$GRIDUNIT
 10
10.0
 20
10.0
  9
$ORTHOMODE
 70
     0
  9
$REGENMODE
 70
     1
  9
$FILLMODE
 70
     1
  9
$QTEXTMODE
 70
     0
  9
$DRAGMODE
 70
     2
  9
$LTSCALE
 40
1.0
  9
$OSMODE
 70
     0
  9
$ATTMODE
 70
     1
  9
$TEXTSIZE
 40
0.2
  9
$TRACEWID
 40
0.05
  9
$TEXTSTYLE
  7
STANDARD
  9
$CLAYER
  8
LAYER01
  9
$CELTYPE
  6
CONTINUOUS
  9
$CECOLOR
 62
     7
  9
$DIMSCALE
 40
1.0
  9
$DIMASZ
 40
0.18
  9
$DIMEXO
 40
0.0625
  9
$DIMDLI
 40
0.38
  9
$DIMRND
 40
0.0
  9
$DIMDLE
 40
0.0
  9
$DIMEXE
 40
0.18
  9
$DIMTP
 40
0.0
  9
$DIMTM
 40
0.0
  9
$DIMTXT
 40
0.18
  9
$DIMCEN
 40
0.09
  9
$DIMTSZ
 40
0.0
  9
$DIMTOL
 70
     0
  9
$DIMLIM
 70
     0
  9
$DIMTIH
 70
     1
  9
$DIMTOH
 70
     1
  9
$DIMSE1
 70
     0
  9
$DIMSE2
 70
     0
  9
$DIMTAD
 70
     0
  9
$DIMZIN
 70
     0
  9
$DIMBLK
  1

  9
$DIMASO
 70
     1
  9
$DIMSHO
 70
     1
  9
$DIMPOST
  1

  9
$DIMAPOST
  1

  9
$DIMALT
 70
     0
  9
$DIMALTD
 70
     2
  9
$DIMALTF
 40
25.4
  9
$DIMLFAC
 40
1.0
  9
$LUNITS
 70
     2
  9
$LUPREC
 70
     4
  9
$AXISMODE
 70
     0
  9
$AXISUNIT
 10
0.0
 20
0.0
  9
$SKETCHINC
 40
0.1
  9
$FILLETRAD
 40
10.0
  9
$AUNITS
 70
     0
  9
$AUPREC
 70
     0
  9
$MENU
  1
acad
  9
$ELEVATION
 40
0.0
  9
$THICKNESS
 40
0.0
  9
$VIEWDIR
 10
0.0
 20
0.0
 30
1.0
  9
$LIMCHECK
 70
     0
  9
$BLIPMODE
 70
     1
  9
$CHAMFERA
 40
10.0
  9
$CHAMFERB
 40
10.0
  9
$FASTZOOM
 70
     1
  9
$SKPOLY
 70
     0
  9
$TDCREATE
 40
0.0
  9
$TDUPDATE
 40
0.0
  9
$TDINDWG
 40
0.0
  9
$TDUSRTIMER
 40
0.0
  9
$USRTIMER
 70
     1
  9
$ANGBASE
 50
0.0
  9
$ANGDIR
 70
     0
  9
$PDMODE
 70
     0
  9
$PDSIZE
 40
0.0
  9
$PLINEWID
 40
0.0
  9
$COORDS
 70
     1
  9
$SPLFRAME
 70
     0
  9
$SPLINESEGS
 70
    10
  9
$ATTDIA
 70
     0
  9
$ATTREQ
 70
     1
  9
$USERI1
 70
     0
  9
$USERI2
 70
     0
  9
$USERI3
 70
     0
  9
$USERI4
 70
     0
  9
$USERI5
 70
     0
  9
$USERR1
 40
0.0
  9
$USERR2
 40
0.0
  9
$USERR3
 40
0.0
  9
$USERR4
 40
0.0
  9
$USERR5
 40
0.0
  0
ENDSEC
  0
SECTION
  2
TABLES
  0
TABLE
  2
LTYPE
 70
    11
  0
LTYPE
  2
CONTINUOUS
 70
     0
  3
Solid line
 72
    65
 73
     0
 40
0.0
  0
LTYPE
  2
DASHED
 70
     0
  3
__ __ __ __ __ __ __ __ __ __ __ __ __ __ __
 72
    65
 73
     2
 40
0.75
 49
0.5
 49
-0.25
  0
LTYPE
  2
HIDDEN
 70
     0
  3
_ _ _ _ _ _ _ _ _ _ _ _ _ _ _ _ _ _ _ _ _ _ 
 72
    65
 73
     2
 40
0.25
 49
0.125
 49
-0.125
  0
LTYPE
  2
CENTER
 70
     0
  3
____ _ ____ _ ____ _ ____ _ ____ _ ____ _ __
 72
    65
 73
     4
 40
2.0
 49
1.25
 49
-0.25
 49
0.25
 49
-0.25
  0
LTYPE
  2
PHANTOM
 70
     0
  3
_____ _ _ _____ _ _ _____ _ _ _____ _ _ ____
 72
    65
 73
     6
 40
2.5
 49
1.25
 49
-0.25
 49
0.25
 49
-0.25
 49
0.25
 49
-0.25
  0
LTYPE
  2
DOT
 70
     0
  3
............................................
 72
    65
 73
     2
 40
0.25
 49
0.0
 49
-0.25
  0
LTYPE
  2
DASHDOT
 70
     0
  3
__ . __ . __ . __ . __ . __ . __ . __ . __ .
 72
    65
 73
     4
 40
1.0
 49
0.5
 49
-0.25
 49
0.0
 49
-0.25
  0
LTYPE
  2
BORDER
 70
     0
  3
__ __ . __ __ . __ __ . __ __ . __ __ . __ _
 72
    65
 73
     6
 40
1.75
 49
0.5
 49
-0.25
 49
0.5
 49
-0.25
 49
0.0
 49
-0.25
  0
LTYPE
  2
DIVIDE
 70
     0
  3
__ . . __ . . __ . . __ . . __ . . __ . . __
 72
    65
 73
     6
 40
1.25
 49
0.5
 49
-0.25
 49
0.0
 49
-0.25
 49
0.0
 49
-0.25
  0
LTYPE
  2
DOTS
 70
     0
  3
close                                       
 72
    65
 73
     2
 40
0.1
 49
0.05
 49
-0.05
  0
LTYPE
  2
CLOSE
 70
     0
  3
                                            
 72
    65
 73
     0
 40
0.0
  0
ENDTAB
  0
TABLE
  2
LAYER
 70
    82
  0
LAYER
  2
0
 70
     0
 62
     7
  6
CONTINUOUS
  0
LAYER
  2
LAYER01
 70
     0
 62
     7
  6
CONTINUOUS
  0
LAYER
  2
LAYER02
 70
     0
 62
     7
  6
CONTINUOUS
  0
LAYER
  2
LAYER03
 70
     0
 62
     7
  6
CONTINUOUS
  0
LAYER
  2
LAYER04
 70
     0
 62
     7
  6
CONTINUOUS
  0
LAYER
  2
LAYER05
 70
     0
 62
     7
  6
CONTINUOUS
  0
LAYER
  2
LAYER06
 70
     0
 62
     7
  6
CONTINUOUS
  0
LAYER
  2
LAYER07
 70
     0
 62
     7
  6
CONTINUOUS
  0
LAYER
  2
LAYER08
 70
     0
 62
     7
  6
CONTINUOUS
  0
LAYER
  2
LAYER09
 70
     0
 62
     7
  6
CONTINUOUS
  0
LAYER
  2
LAYER10
 70
     0
 62
     7
  6
CONTINUOUS
  0
LAYER
  2
1
 70
     0
 62
     7
  6
CONTINUOUS
  0
LAYER
  2
10
 70
     0
 62
     7
  6
CONTINUOUS
  0
LAYER
  2
11
 70
     0
 62
     7
  6
CONTINUOUS
  0
LAYER
  2
DIM
 70
     0
 62
     7
  6
CONTINUOUS
  0
LAYER
  2
CONTINUOUS
 70
     0
 62
     7
  6
CONTINUOUS
  0
LAYER
  2
HIDDEN
 70
     0
 62
     7
  6
CONTINUOUS
  0
LAYER
  2
DOT
 70
     0
 62
     7
  6
CONTINUOUS
  0
LAYER
  2
DASHDOT
 70
     0
 62
     7
  6
CONTINUOUS
  0
LAYER
  2
DIVIDE
 70
     0
 62
     7
  6
CONTINUOUS
  0
LAYER
  2
DIMENSION
 70
     0
 62
     7
  6
CONTINUOUS
  0
LAYER
  2
2
 70
     0
 62
     7
  6
CONTINUOUS
  0
LAYER
  2
3
 70
     0
 62
     7
  6
CONTINUOUS
  0
LAYER
  2
4
 70
     0
 62
     7
  6
CONTINUOUS
  0
LAYER
  2
5
 70
     0
 62
     7
  6
CONTINUOUS
  0
LAYER
  2
6
 70
     0
 62
     7
  6
CONTINUOUS
  0
LAYER
  2
7
 70
     0
 62
     7
  6
CONTINUOUS
  0
LAYER
  2
8
 70
     0
 62
     7
  6
CONTINUOUS
  0
LAYER
  2
9
 70
     0
 62
     7
  6
CONTINUOUS
  0
LAYER
  2
12
 70
     0
 62
     7
  6
CONTINUOUS
  0
LAYER
  2
13
 70
     0
 62
     7
  6
CONTINUOUS
  0
LAYER
  2
14
 70
     0
 62
     7
  6
CONTINUOUS
  0
LAYER
  2
15
 70
     0
 62
     7
  6
CONTINUOUS
  0
LAYER
  2
16
 70
     0
 62
     7
  6
CONTINUOUS
  0
LAYER
  2
17
 70
     0
 62
     7
  6
CONTINUOUS
  0
LAYER
  2
18
 70
     0
 62
     7
  6
CONTINUOUS
  0
LAYER
  2
19
 70
     0
 62
     7
  6
CONTINUOUS
  0
LAYER
  2
HATCH
 70
     0
 62
     7
  6
CONTINUOUS
  0
LAYER
  2
GUIDE1
 70
     0
 62
     7
  6
CONTINUOUS
  0
LAYER
  2
GUIDE2
 70
     0
 62
     7
  6
CONTINUOUS
  0
LAYER
  2
GUIDE3
 70
     0
 62
     7
  6
CONTINUOUS
  0
LAYER
  2
GUIDE4
 70
     0
 62
     7
  6
CONTINUOUS
  0
LAYER
  2
DEFAULT_1
 70
     0
 62
     7
  6
CONTINUOUS
  0
LAYER
  2
DEFAULT_2
 70
     0
 62
     7
  6
CONTINUOUS
  0
LAYER
  2
DEFAULT_3
 70
     0
 62
     7
  6
CONTINUOUS
  0
LAYER
  2
BYLAYER
 70
     0
 62
     7
  6
CONTINUOUS
  0
LAYER
  2
FRAME025
 70
     0
 62
     7
  6
CONTINUOUS
  0
LAYER
  2
FRAME050
 70
     0
 62
     7
  6
CONTINUOUS
  0
LAYER
  2
DETECTOR
 70
     0
 62
     7
  6
CONTINUOUS
  0
LAYER
  2
2-1PLATE
 70
     0
 62
     7
  6
CONTINUOUS
  0
LAYER
  2
1BODY
 70
     0
 62
     7
  6
CONTINUOUS
  0
LAYER
  2
DEWARASSY
 70
     0
 62
     7
  6
CONTINUOUS
  0
LAYER
  2
OBJECT
 70
     0
 62
     7
  6
CONTINUOUS
  0
LAYER
  2
CENTER
 70
     0
 62
     7
  6
CONTINUOUS
  0
LAYER
  2
CAROUSEL
 70
     0
 62
     7
  6
CONTINUOUS
  0
LAYER
  2
TAP50MM
 70
     0
 62
     7
  6
CONTINUOUS
  0
LAYER
  2
OPTICALBENCH
 70
     0
 62
     7
  6
CONTINUOUS
  0
LAYER
  2
OPTICAL_ELEMENT
 70
     0
 62
     7
  6
CONTINUOUS
  0
LAYER
  2
LENSHOLDER
 70
     0
 62
     7
  6
CONTINUOUS
  0
LAYER
  2
NEJIANA
 70
     0
 62
     7
  6
CONTINUOUS
  0
LAYER
  2
NOTE
 70
     0
 62
     7
  6
CONTINUOUS
  0
LAYER
  2
HOJO2
 70
     0
 62
     7
  6
CONTINUOUS
  0
LAYER
  2
HOJO
 70
     0
 62
     7
  6
CONTINUOUS
  0
LAYER
  2
NEJI
 70
     0
 62
     7
  6
CONTINUOUS
  0
LAYER
  2
MENEJI
 70
     0
 62
     7
  6
CONTINUOUS
  0
LAYER
  2
SPRINGHOLDER
 70
     0
 62
     7
  6
CONTINUOUS
  0
LAYER
  2
FILTERWHEEL1
 70
     0
 62
     7
  6
CONTINUOUS
  0
LAYER
  2
FASTENERS
 70
     0
 62
     7
  6
CONTINUOUS
  0
LAYER
  2
SHUTTER
 70
     0
 62
     7
  6
CONTINUOUS
  0
LAYER
  2
POST
 70
     0
 62
     7
  6
CONTINUOUS
  0
LAYER
  2
CONSTRUCTIONLINES
 70
     0
 62
     7
  6
CONTINUOUS
  0
LAYER
  2
INNERFPBOX
 70
     0
 62
     7
  6
CONTINUOUS
  0
LAYER
  2
OBPLATELOWER
 70
     0
 62
     7
  6
CONTINUOUS
  0
LAYER
  2
OBPLATEMIDDLE1
 70
     0
 62
     7
  6
CONTINUOUS
  0
LAYER
  2
ZAXIS
 70
     0
 62
     7
  6
CONTINUOUS
  0
LAYER
  2
ROBOHAND
 70
     0
 62
     7
  6
CONTINUOUS
  0
LAYER
  2
GATEVALVE
 70
     0
 62
     7
  6
CONTINUOUS
  0
LAYER
  2
THROAT
 70
     0
 62
     7
  6
CONTINUOUS
  0
LAYER
  2
OBBRACKET
 70
     0
 62
     7
  6
CONTINUOUS
  0
LAYER
  2
OBFASTENERS
 70
     0
 62
     7
  6
CONTINUOUS
  0
LAYER
  2
MERGE
 70
     0
 62
     7
  6
CONTINUOUS
  0
LAYER
  2
STANDARD
 70
     0
 62
     7
  6
CONTINUOUS
  0
ENDTAB
  0
TABLE
  2
STYLE
 70
     1
  0
STYLE
  2
STANDARD
 70
     0
 40
0.0
 41
1.0
 50
0.0
 71
     0
 42
0.0
  3
txt
  4

  0
ENDTAB
  0
TABLE
  2
VIEW
 70
     0
  0
ENDTAB
  0
ENDSEC
  0
SECTION
  2
BLOCKS
  0
BLOCK
  8
0
  2
*D0
 70
    65
 10
0.0
 20
0.0
  0
LINE
  8
LAYER01
 62
     7
 10
381.354831
 20
268.742121
 11
381.354831
 21
196.732121
  0
LINE
  8
LAYER01
 62
     7
 10
381.354831
 20
110.322121
 11
381.354831
 21
182.332121
  0
LINE
  8
LAYER01
 62
     7
 10
223.114636
 20
268.742121
 11
385.354831
 21
268.742121
  0
LINE
  8
LAYER01
 62
     7
 10
223.114636
 20
110.322121
 11
385.354831
 21
110.322121
  0
SOLID
  8
LAYER01
 62
     7
 10
380.521531
 20
263.742121
 11
381.354831
 21
268.742121
 12
382.188131
 22
263.742121
 13
382.188131
 23
263.742121
  0
SOLID
  8
LAYER01
 62
     7
 10
380.521531
 20
115.322121
 11
381.354831
 21
110.322121
 12
382.188131
 22
115.322121
 13
382.188131
 23
115.322121
  0
TEXT
  8
LAYER01
  6
CONTINUOUS
 62
     7
 10
369.908322
 20
185.532121
 40
8.0
  1
158.42
  0
POINT
  8
LAYER01
 62
     7
 10
219.914636
 20
268.742121
  0
POINT
  8
LAYER01
 62
     7
 10
219.914636
 20
110.322121
  0
POINT
  8
LAYER01
 62
     7
 10
381.354831
 20
110.322121
  0
ENDBLK
  8
0
  0
BLOCK
  8
0
  2
*D1
 70
    65
 10
0.0
 20
0.0
  0
LINE
  8
LAYER01
 62
     7
 10
334.914636
 20
265.567121
 11
334.914636
 21
196.732121
  0
LINE
  8
LAYER01
 62
     7
 10
334.914636
 20
113.497121
 11
334.914636
 21
182.332121
  0
LINE
  8
LAYER01
 62
     7
 10
223.114636
 20
265.567121
 11
338.914636
 21
265.567121
  0
LINE
  8
LAYER01
 62
     7
 10
223.114636
 20
113.497121
 11
338.914636
 21
113.497121
  0
SOLID
  8
LAYER01
 62
     7
 10
334.081336
 20
260.567121
 11
334.914636
 21
265.567121
 12
335.747936
 22
260.567121
 13
335.747936
 23
260.567121
  0
SOLID
  8
LAYER01
 62
     7
 10
334.081336
 20
118.497121
 11
334.914636
 21
113.497121
 12
335.747936
 22
118.497121
 13
335.747936
 23
118.497121
  0
TEXT
  8
LAYER01
  6
CONTINUOUS
 62
     7
 10
323.468126
 20
185.532121
 40
8.0
  1
152.07
  0
POINT
  8
LAYER01
 62
     7
 10
219.914636
 20
265.567121
  0
POINT
  8
LAYER01
 62
     7
 10
219.914636
 20
113.497121
  0
POINT
  8
LAYER01
 62
     7
 10
334.914636
 20
113.497121
  0
ENDBLK
  8
0
  0
BLOCK
  8
0
  2
*D2
 70
    65
 10
0.0
 20
0.0
  0
LINE
  8
LAYER01
 62
     7
 10
136.914636
 20
290.213335
 11
204.335204
 21
290.213335
  0
LINE
  8
LAYER01
 62
     7
 10
302.914636
 20
290.213335
 11
233.628223
 21
290.213335
  0
LINE
  8
LAYER01
 62
     7
 10
136.914636
 20
192.732121
 11
136.914636
 21
294.213335
  0
LINE
  8
LAYER01
 62
     7
 10
302.914636
 20
192.732121
 11
302.914636
 21
294.213335
  0
SOLID
  8
LAYER01
 62
     7
 10
141.914636
 20
289.380035
 11
136.914636
 21
290.213335
 12
141.914636
 22
291.046635
 13
141.914636
 23
291.046635
  0
SOLID
  8
LAYER01
 62
     7
 10
297.914636
 20
289.380035
 11
302.914636
 21
290.213335
 12
297.914636
 22
291.046635
 13
297.914636
 23
291.046635
  0
TEXT
  8
LAYER01
  6
CONTINUOUS
 62
     7
 10
207.535204
 20
286.213335
 40
8.0
  1
166.00
  0
POINT
  8
LAYER01
 62
     7
 10
136.914636
 20
189.532121
  0
POINT
  8
LAYER01
 62
     7
 10
302.914636
 20
189.532121
  0
POINT
  8
LAYER01
 62
     7
 10
302.914636
 20
290.213335
  0
ENDBLK
  8
0
  0
BLOCK
  8
0
  2
*D3
 70
    65
 10
0.0
 20
0.0
  0
LINE
  8
LAYER01
 62
     7
 10
162.187169
 20
233.393147
 11
182.144086
 21
218.229987
  0
LINE
  8
LAYER01
 62
     7
 10
277.642102
 20
145.671095
 11
197.769187
 21
206.358117
  0
SOLID
  8
LAYER01
 62
     7
 10
165.664244
 20
229.704741
 11
162.187169
 21
233.393147
 12
166.672503
 22
231.031757
 13
166.672503
 23
231.031757
  0
SOLID
  8
LAYER01
 62
     7
 10
273.156768
 20
148.032486
 11
277.642102
 21
145.671095
 12
274.165027
 22
149.359501
 13
274.165027
 23
149.359501
  0
TEXT
  8
LAYER01
  6
CONTINUOUS
 62
     7
 10
176.466107
 20
208.294052
 40
8.0
  1
%%c145.00
  0
POINT
  8
LAYER01
 62
     7
 10
219.914636
 20
189.532121
  0
POINT
  8
LAYER01
 62
     7
 10
277.642102
 20
145.671095
  0
ENDBLK
  8
0
  0
BLOCK
  8
0
  2
*D4
 70
    65
 10
0.0
 20
0.0
  0
LINE
  8
LAYER01
 62
     7
 10
295.740239
 20
238.013848
 11
262.682082
 21
216.87697
  0
LINE
  8
LAYER01
 62
     7
 10
144.089032
 20
141.050395
 11
244.778009
 21
205.42938
  0
SOLID
  8
LAYER01
 62
     7
 10
291.078819
 20
236.02248
 11
295.740239
 21
238.013848
 12
291.976593
 22
234.618358
 13
291.976593
 23
234.618358
  0
SOLID
  8
LAYER01
 62
     7
 10
147.852678
 20
144.445885
 11
144.089032
 21
141.050395
 12
148.750452
 22
143.041763
 13
148.750452
 23
143.041763
  0
TEXT
  8
LAYER01
  6
CONTINUOUS
 62
     7
 10
240.239517
 20
207.153175
 40
8.0
  1
%%c180.00
  0
POINT
  8
LAYER01
 62
     7
 10
219.914636
 20
189.532121
  0
POINT
  8
LAYER01
 62
     7
 10
144.089032
 20
141.050395
  0
ENDBLK
  8
0
  0
BLOCK
  8
0
  2
*D5
 70
    65
 10
0.0
 20
0.0
  0
LINE
  8
LAYER01
 62
     7
 10
110.829149
 20
192.032121
 11
110.829149
 21
202.032121
  0
LINE
  8
LAYER01
 62
     7
 10
110.829149
 20
187.032121
 11
110.829149
 21
177.032121
  0
LINE
  8
LAYER01
 62
     7
 10
133.714636
 20
192.032121
 11
106.829149
 21
192.032121
  0
LINE
  8
LAYER01
 62
     7
 10
133.714636
 20
187.032121
 11
106.829149
 21
187.032121
  0
SOLID
  8
LAYER01
 62
     7
 10
109.995849
 20
197.032121
 11
110.829149
 21
192.032121
 12
111.662449
 22
197.032121
 13
111.662449
 23
197.032121
  0
SOLID
  8
LAYER01
 62
     7
 10
109.995849
 20
182.032121
 11
110.829149
 21
187.032121
 12
111.662449
 22
182.032121
 13
111.662449
 23
182.032121
  0
TEXT
  8
LAYER01
  6
CONTINUOUS
 62
     7
 10
80.573048
 20
195.729246
 40
8.0
  1
5.00
  0
POINT
  8
LAYER01
 62
     7
 10
136.914636
 20
192.032121
  0
POINT
  8
LAYER01
 62
     7
 10
136.914636
 20
187.032121
  0
POINT
  8
LAYER01
 62
     7
 10
110.829149
 20
187.032121
  0
ENDBLK
  8
0
  0
ENDSEC
  0
SECTION
  2
ENTITIES
  0
DIMENSION
  8
LAYER01
 62
     7
  2
*D0
 10
381.354831
 20
110.322121
 11
381.485889
 21
189.532121
 13
219.914636
 23
268.742121
 14
219.914636
 24
110.322121
 50
90.0
  0
DIMENSION
  8
LAYER01
 62
     7
  2
*D1
 10
334.914636
 20
113.497121
 11
335.045694
 21
189.532121
 13
219.914636
 23
265.567121
 14
219.914636
 24
113.497121
 50
90.0
  0
DIMENSION
  8
LAYER01
 62
     7
  2
*D2
 10
302.914636
 20
290.213335
 11
219.112772
 21
290.213335
 13
136.914636
 23
189.532121
 14
302.914636
 24
189.532121
  0
CIRCLE
  8
LAYER01
  6
HIDDEN
 62
     7
 10
219.914636
 20
189.532121
 40
72.5
  0
CIRCLE
  8
LAYER01
  6
CONTINUOUS
 62
     7
 10
219.914636
 20
189.532121
 40
79.21
  0
CIRCLE
  8
LAYER01
  6
CONTINUOUS
 62
     7
 10
219.914636
 20
189.532121
 40
76.035
  0
CIRCLE
  8
LAYER01
  6
CONTINUOUS
 62
     7
 10
219.914636
 20
189.532121
 40
90.0
  0
LINE
  8
LAYER01
 62
     7
 10
257.555744
 20
128.131275
 11
287.719325
 21
95.49527
  0
LINE
  8
LAYER01
 62
     7
 10
287.719325
 20
95.49527
 11
298.597993
 21
95.49527
  0
SOLID
  8
LAYER01
 62
     7
 10
260.226228
 20
124.063295
 11
257.555744
 21
128.131275
 12
261.401184
 22
125.149239
 13
261.401184
 23
125.149239
  0
TEXT
  8
LAYER01
  6
CONTINUOUS
 62
     7
 10
301.597993
 20
92.49527
 40
6.0
  1
Dashed line represents
  0
TEXT
  8
LAYER01
  6
CONTINUOUS
 62
     7
 10
301.597993
 20
86.49527
 40
6.0
  1
hole through Carousel Plate
  0
TEXT
  8
LAYER01
  6
CONTINUOUS
 62
     7
 10
199.089692
 20
68.658069
 40
10.0
  1
Carousel View Port Cover Plate
  0
CIRCLE
  8
1
  6
CONTINUOUS
 62
   249
 10
219.914636
 20
106.532121
 40
2.5
  0
TEXT
  8
LAYER01
  6
CONTINUOUS
 62
     7
 10
84.366524
 20
76.551865
 40
6.0
  1
Note: Thickness of Cover Plate should be
  0
TEXT
  8
LAYER01
  6
CONTINUOUS
 62
     7
 10
84.366524
 20
70.551865
 40
6.0
  1
determined by window dimensions.
  0
CIRCLE
  8
1
  6
CONTINUOUS
 62
   249
 10
136.914636
 20
189.532121
 40
2.5
  0
CIRCLE
  8
1
  6
CONTINUOUS
 62
   249
 10
161.224773
 20
130.842259
 40
2.5
  0
CIRCLE
  8
1
  6
CONTINUOUS
 62
   249
 10
278.604498
 20
130.842259
 40
2.5
  0
CIRCLE
  8
1
  6
CONTINUOUS
 62
   249
 10
278.604498
 20
248.221984
 40
2.5
  0
CIRCLE
  8
1
  6
CONTINUOUS
 62
   249
 10
161.224773
 20
248.221984
 40
2.5
  0
DIMENSION
  8
LAYER01
 62
     7
  2
*D3
 10
277.642102
 20
145.671095
 11
190.148687
 21
212.294052
 70
     3
 15
162.187169
 25
233.393147
  0
DIMENSION
  8
LAYER01
 62
     7
  2
*D4
 10
144.089032
 20
141.050395
 11
253.922096
 21
211.153175
 70
     3
 15
295.740239
 25
238.013848
  0
DIMENSION
  8
LAYER01
 62
     7
  2
*D5
 10
110.829149
 20
187.032121
 11
87.940591
 21
199.729246
 13
136.914636
 23
192.032121
 14
136.914636
 24
187.032121
 50
90.0
  0
LINE
  8
LAYER01
 62
     7
 10
110.829149
 20
189.532121
 11
103.962169
 21
199.729246
  0
LINE
  8
LAYER01
 62
     7
 10
103.962169
 20
199.729246
 11
99.114888
 21
199.729246
  0
SOLID
  8
LAYER01
 62
     7
 10
108.727463
 20
194.144855
 11
110.829149
 21
189.532121
 12
107.345094
 22
193.213935
 13
107.345094
 23
193.213935
  0
CIRCLE
  8
1
  6
CONTINUOUS
 62
   249
 10
302.914636
 20
189.532121
 40
2.5
  0
LINE
  8
LAYER01
 62
     7
 10
265.467503
 20
254.719418
 11
327.278119
 21
293.289242
  0
LINE
  8
LAYER01
 62
     7
 10
327.278119
 20
293.289242
 11
345.574061
 21
293.289242
  0
SOLID
  8
LAYER01
 62
     7
 10
269.963218
 20
256.581807
 11
265.467503
 21
254.719418
 12
269.11623
 22
257.93916
 13
269.11623
 23
257.93916
  0
TEXT
  8
LAYER01
  6
CONTINUOUS
 62
     7
 10
348.574061
 20
290.289242
 40
6.0
  1
Groove for O-Ring 2-163
  0
CIRCLE
  8
1
  6
CONTINUOUS
 62
   249
 10
219.914636
 20
272.532121
 40
2.5
  0
TEXT
  8
LAYER01
  6
CONTINUOUS
 62
     7
 10
88.576549
 20
309.681972
 40
8.0
  1
To:Tetsuo Nishimura
  0
ENDSEC
  0
EOF
